#TITLE:Betthoven Virus;
#SUBTITLE:SDO China lv18 - [N]hok[Q] Simfile;
#ARTIST:Banya;
#TITLETRANSLIT:;
#SUBTITLETRANSLIT:;
#ARTISTTRANSLIT:;
#CREDIT:[N]hok[Q];
#BANNER:bn.png;
#BACKGROUND:bg.png;
#LYRICSPATH:;
#CDTITLE:cd.png;
#MUSIC:Virus.mp3;
#OFFSET:-0.434;
#SAMPLESTART:68.703;
#SAMPLELENGTH:12.115;
#SELECTABLE:YES;
#DISPLAYBPM:156.000;
#BPMS:0.000=156.013,1.000=155.996,2.000=156.013,3.000=155.996,4.000=156.013,5.000=155.996,6.000=156.013,7.000=155.996,8.000=156.013,9.000=155.996,10.000=156.013,11.000=155.996,12.000=156.013,13.000=155.996,15.000=156.013,16.000=155.996,17.000=156.013,18.000=155.996,19.000=156.013,20.000=155.996,21.000=156.013,22.000=155.996,23.000=156.013,24.000=155.996,25.000=156.013,26.000=155.996,28.000=156.013,29.000=155.996,30.000=156.013,31.000=155.996,32.000=156.013,33.000=155.996,34.000=156.013,35.000=155.996,37.000=156.013,38.000=155.996,39.000=156.013,40.000=155.996,41.000=156.013,42.000=155.996,44.000=156.013,45.000=155.996,46.000=156.013,47.000=155.996,48.000=156.013,49.000=155.996,50.000=156.013,51.000=155.996,53.000=156.013,54.000=155.996,55.000=156.005,56.000=155.996,57.000=156.005,58.000=155.996,59.000=156.005,60.000=155.996,61.000=156.005,62.000=155.996,63.000=156.005,64.000=155.996,65.000=156.005,66.000=155.996,67.000=156.005,68.000=155.996,69.000=156.005,70.000=155.996,71.000=156.005,72.000=155.996,73.000=156.005,74.000=155.996,75.000=156.005,76.000=155.996,77.000=156.005,78.000=155.996,79.000=156.005,80.000=155.996,81.000=156.005,82.000=155.996,83.000=156.005,84.000=155.996,85.000=156.005,86.000=155.996,87.000=156.005,88.000=155.996,89.000=156.005,90.000=155.996,91.000=156.005,92.000=155.996,93.000=156.005,94.000=155.996,95.000=156.005,96.000=155.996,97.000=156.005,98.000=155.996,99.000=156.005,100.000=155.996,101.000=156.005,102.000=155.996,103.000=156.005,104.000=155.996,105.000=156.005,106.000=155.996,107.000=156.005,108.000=155.996,109.000=156.005,110.000=155.996,111.000=156.005,112.000=155.996,113.000=156.005,114.000=155.996,115.000=156.005,116.000=155.996,117.000=156.005,118.000=155.996,119.000=156.005,120.000=155.996,121.000=156.005,122.000=155.996,123.000=156.005,124.000=155.996,125.000=156.005,126.000=155.996,127.000=156.005,128.000=155.996,129.000=156.005,130.000=155.996,131.000=156.005,132.000=155.996,133.000=156.005,134.000=155.996,135.000=156.005,136.000=155.996,137.000=156.005,138.000=155.996,139.000=156.005,140.000=155.996,141.000=156.005,142.000=155.996,143.000=156.005,144.000=155.996,145.000=156.005,146.000=155.996,147.000=156.005,148.000=155.996,149.000=156.005,150.000=155.996,151.000=156.005,152.000=155.996,153.000=156.005,154.000=155.996,155.000=156.005,156.000=155.996,157.000=156.005,158.000=155.996,159.000=156.005,160.000=155.996,161.000=156.005,162.000=155.996,163.000=156.005,164.000=155.996,165.000=156.005,166.000=155.996,167.000=156.005,168.000=155.996,169.000=156.005,170.000=155.996,171.000=156.005,172.000=155.996,173.000=156.005,174.000=155.996,175.000=156.005,176.000=155.996,177.000=156.005,178.000=155.996,179.000=156.005,180.000=155.996,181.000=156.005,182.000=155.996,183.000=156.005,184.000=155.996,185.000=156.005,186.000=155.996,187.000=156.005,188.000=155.996,189.000=156.005,190.000=155.996,191.000=156.005,192.000=155.996,193.000=156.005,194.000=155.996,195.000=156.005,196.000=155.996,197.000=156.005,198.000=155.996,199.000=156.005,200.000=155.996,201.000=156.005,202.000=155.996,203.000=156.005,204.000=155.996,205.000=156.005,206.000=155.996,207.000=156.005,208.000=155.996,209.000=156.005,210.000=155.996,211.000=156.005,212.000=155.996,213.000=156.005,214.000=155.996,215.000=156.005,216.000=155.996,217.000=156.005,218.000=155.996,219.000=156.005,220.000=155.996,221.000=156.005,222.000=155.996,223.000=156.005,224.000=155.996,226.000=156.005,227.000=155.996,228.000=156.005,229.000=155.996,230.000=156.005,231.000=155.996,232.000=156.005,233.000=155.996,234.000=156.005,235.000=155.996,236.000=156.005,237.000=155.996,238.000=156.005,239.000=155.996,240.000=156.005,241.000=155.996,242.000=156.005,243.000=155.996,244.000=156.005,245.000=155.996,246.000=156.005,247.000=155.996,248.000=156.005,249.000=155.996,250.000=156.005,251.000=155.996,252.000=156.005,253.000=155.996,254.000=156.005,255.000=155.996,256.000=156.005,257.000=155.996,258.000=156.005,259.000=155.996,260.000=156.005,261.000=155.996,262.000=156.005,263.000=155.996,264.000=156.005,265.000=155.996,266.000=156.005,267.000=155.996,268.000=156.005,269.000=155.996,270.000=156.005,271.000=155.996,272.000=156.005,273.000=155.996,274.000=156.005,275.000=155.996,276.000=156.005,277.000=155.996,278.000=156.005,279.000=155.996,280.000=156.005,281.000=155.996,282.000=156.005,283.000=155.996,284.000=156.005,285.000=155.996,286.000=156.005,287.000=155.996,288.000=156.005,289.000=155.996,290.000=156.005,291.000=155.996,292.000=156.005,293.000=155.996,294.000=156.005,295.000=155.996,296.000=156.005,297.000=155.996,298.000=156.005,299.000=155.996,300.000=156.005,301.000=155.996,302.000=156.005,303.000=155.996,304.000=156.005,305.000=155.996,306.000=156.005,307.000=155.996,308.000=156.005,309.000=155.996,310.000=156.005,311.000=155.996,312.000=156.005,313.000=155.996,314.000=156.005,315.000=155.996,316.000=156.005,317.000=155.996,318.000=156.005,319.000=155.996,320.000=156.005,321.000=155.996,322.000=156.005,323.000=155.996,324.000=156.005,325.000=155.996,326.000=156.005,327.000=155.996,328.000=156.005,329.000=155.996,330.000=156.005,331.000=155.996,332.000=156.005,333.000=155.996,334.000=156.005,335.000=155.996,336.000=156.005,337.000=155.996,338.000=156.005,339.000=155.996,340.000=156.005,341.000=155.996,342.000=156.005,343.000=155.996,344.000=156.005,345.000=155.996,346.000=156.005,347.000=155.996,348.000=156.005,349.000=155.996,350.000=156.005,351.000=155.996,352.000=156.005,353.000=155.996,354.000=156.005,355.000=155.996,356.000=156.005,357.000=155.996,358.000=156.005,359.000=155.996,360.000=156.005,361.000=155.996,362.000=156.005,363.000=155.996,364.000=156.005,365.000=155.996,366.000=156.005,367.000=155.996,368.000=156.005,369.000=155.996,370.000=156.005,371.000=155.996,372.000=156.005,373.000=155.996,374.000=156.005,375.000=155.996,376.000=156.005,377.000=155.996,378.000=156.005,379.000=155.996,380.000=156.005,381.000=155.996,382.000=156.005,383.000=155.996,384.000=156.005,385.000=155.996,386.000=156.005,387.000=155.996,388.000=156.005,389.000=155.996,390.000=156.005,391.000=155.996,392.000=156.005,393.000=155.996,394.000=156.005,395.000=155.996,396.000=156.005,397.000=155.996,398.000=156.005,399.000=155.996,400.000=156.005,401.000=155.996,402.000=156.005,403.000=155.996,404.000=156.005,405.000=155.996,406.000=156.005,407.000=155.996,408.000=156.005,409.000=155.996,410.000=156.005,411.000=155.996,412.000=156.005,413.000=155.996,414.000=156.005,415.000=155.996,416.000=156.005,417.000=155.996,418.000=156.005,419.000=155.996,420.000=156.005,421.000=155.996,422.000=156.005,423.000=155.996,424.000=156.005,425.000=155.996,426.000=156.005,427.000=155.996,428.000=156.005,429.000=155.996,430.000=156.005,431.000=155.996,432.000=156.005,433.000=155.996,434.000=156.005,435.000=155.996,436.000=156.005,437.000=155.996,438.000=156.005,439.000=155.996,440.000=156.005,441.000=155.996,442.000=156.005,443.000=155.996,444.000=156.005,445.000=155.996,446.000=156.005,447.000=155.996,448.000=156.005,449.000=155.996,450.000=156.005,451.000=155.996,489.000=155.988,490.000=155.996,528.000=155.988,529.000=155.996;
#STOPS:;
#BGCHANGES:;
// cache tags:
#FIRSTBEAT:3.000;
#LASTBEAT:559.000;
#SONGFILENAME:Songs/SDO pack 4/Betthoven Virus/Betthoven Virus.sm;
#HASMUSIC:1;
#HASBANNER:1;
#MUSICLENGTH:217.752;
// end cache tags

//---------------dance-single - ----------------
#NOTES:
     dance-single:
     :
     Medium:
     10:
     0.729,1.000,1.000,0.000,0.002,716.000,395.000,0.000,0.000,0.000:
0000
0000
0000
0110
,
0000
0110
0000
0000
0000
0000
0000
0000
,
0000
0000
0000
1001
,
0000
0110
0000
0000
0000
0000
0000
0000
,
0000
0000
0000
0000
0000
0000
1000
0100
,
0010
0001
0010
0100
1000
0100
0010
0001
,
0010
0100
1000
0100
0001
0010
1000
0010
,
0100
0010
0100
0010
0100
0010
1001
0010
,
1001
0100
1001
0110
0011
0110
1001
0000
,
0000
0110
1001
0000
0000
1001
0110
0000
,
1001
0100
1001
1001
,
0110
0011
1100
0110
,
1001
0000
0010
0000
1001
0110
0101
0000
,
1001
0000
0010
0000
1001
0011
1100
0000
,
0110
0000
0010
0000
0110
1001
0110
0000
,
0011
1100
1100
0000
0010
0011
0110
0000
,
0110
0000
0010
0000
1001
0110
1001
0000
,
0110
1001
0110
0000
0011
0110
1100
0000
,
0110
0011
1001
0110
,
0011
1100
0110
1001
,
1010
0000
0001
0000
1010
0101
0011
0000
,
0101
0000
0001
0000
1001
0110
1001
0000
,
0011
0000
0110
0000
0011
0110
1100
0000
,
0110
1100
0110
0000
0011
0011
1100
0000
,
0110
0000
0000
0000
0000
0000
0001
0001
0110
0000
0001
0000
0010
0000
0100
0000
,
0010
0100
0001
1000
0100
1000
0001
0100
,
0010
1000
0001
0100
0010
0001
1000
0100
,
0010
0001
0010
0100
1000
0100
0010
0001
,
0100
0001
0100
0010
1000
0001
0100
0010
,
0001
1000
0100
0010
0100
0010
0001
0010
,
0100
1000
0100
0010
0001
0010
0100
0001
,
0100
0001
0100
1000
0100
0010
0001
0010
,
0100
0010
0001
0000
0010
0001
0100
0000
,
0010
0000
0001
0100
0010
0010
0100
0001
,
0010
0100
1000
1000
0100
0100
0010
0001
,
0001
0100
0010
1000
0001
0100
0010
0001
,
0010
0100
0010
0001
0100
0010
0001
0000
,
1000
0000
0100
0010
0001
0010
0100
1000
,
0100
0010
0001
0010
0100
1000
0100
0000
,
0001
0000
0010
0100
0010
0001
0010
0100
,
0010
0001
0100
0010
0001
0010
1000
0001
,
1000
0001
1000
0001
1000
0001
1000
0001
,
1000
0001
1000
0001
1000
0101
0100
0010
,
0100
0010
0100
0010
0100
0010
0100
0010
,
1001
1001
1001
0000
0000
0000
0010
0000
,
1001
0010
1001
0100
,
1010
0010
0101
0010
,
1010
0110
0011
0110
,
0101
0010
1001
0100
,
1001
0010
1100
0100
,
0011
0100
0110
0001
,
0110
1000
0110
0001
,
0101
0000
1100
0011
0110
0110
0011
0000
,
0010
1010
0000
1000
0101
0000
0000
0000
,
0000
0000
0000
0101
,
0000
1001
0000
0000
0110
0000
0000
0000
,
0000
0000
0000
0011
,
0000
1001
0000
0000
0000
1001
0000
0011
,
0000
0000
0000
1001
,
0000
1001
0000
0000
0000
0101
0000
0000
,
0000
0000
0000
1100
,
0010
0101
0000
0010
0101
0000
0000
0000
,
0000
0000
0000
0011
,
0000
0110
0000
0000
0011
0000
0000
0000
,
0000
0000
0000
0101
,
0000
0110
0000
0000
0000
0011
0000
0110
,
0000
0000
0000
1001
,
0000
0011
0000
0000
0000
0110
0000
0000
,
0000
1001
0000
1010
,
0000
0010
0101
0000
0000
0000
0000
1001
,
0000
0001
1001
0000
0000
0000
0011
0000
,
0000
0100
1010
0000
0000
0000
0000
0011
,
0000
0010
1001
0000
0000
0000
1100
0000
,
0000
0001
0101
0000
0000
0000
0000
0011
,
0000
1000
1010
0000
0000
0000
0110
0000
,
0000
0001
0011
0000
0000
0000
0110
0000
,
0110
0110
0000
0110
,
0000
0011
0011
0000
0000
0000
0110
0000
,
0000
1001
1001
0000
0000
0000
0011
0000
,
0000
1100
0110
0000
0000
0000
0110
0000
,
0000
0101
0101
0000
0000
0000
0110
0000
,
0000
0011
0110
0000
0000
0000
1001
0000
,
0000
0110
1001
0000
0000
0000
0011
0000
,
0000
1100
1100
0000
0000
0000
0011
0000
,
1100
0011
1100
0011
,
1100
0011
1100
0110
,
0011
1100
0110
1001
,
0110
0011
1100
0110
,
0011
0110
1100
0110
,
0011
1001
0110
1001
,
0110
0011
0110
1100
,
0110
0011
0110
1100
,
0110
0011
0110
1001
,
0110
0101
1001
0110
,
0011
0000
1100
0000
1001
0000
0001
0001
,
1000
1000
0100
0100
0010
0001
0010
0100
,
1000
0100
1000
0100
0010
0001
0100
0010
,
0001
1000
0100
0001
0010
0100
0010
0001
,
1000
0100
1000
0010
0001
0100
0010
0001
,
0010
0100
0001
0010
0100
0001
0010
0100
,
0010
0001
1000
0100
0010
0100
0010
0001
,
0100
0010
1000
0001
0100
0010
0001
0010
,
0001
0010
0100
0000
0000
0000
1010
0000
,
0000
0000
0010
0001
1000
0100
0010
0001
,
0100
0010
0100
0010
0001
0010
0100
0000
,
0001
0000
0010
1000
0100
0100
1000
0100
,
0010
0100
0010
0001
0010
0100
1000
0000
,
0010
0000
0010
0100
0010
0100
1000
0100
,
0010
0001
0010
0100
0010
0001
0100
0000
,
0001
0000
0010
0001
0100
0010
0001
0100
,
0010
0001
0100
0010
0001
0110
0110
1100
,
0011
0110
1010
0110
1100
0110
0011
1010
,
1001
0110
1001
0110
0011
0110
1100
0110
,
1001
0110
0011
1100
0110
1001
0110
0011
,
1100
0110
1001
0110
0110
0011
1100
0110
,
1001
1100
0011
0110
1100
0110
0011
0110
,
1100
1001
0110
1001
0011
0110
1100
0110
,
1001
0110
0011
0110
1001
0110
0011
0000
,
1001
0110
0011
0000
0000
0000
1001
0000
,
0110
0000
1001
0000
0011
0000
1100
0011
,
0110
0000
0011
0110
1100
0000
0110
1001
,
0110
0000
1001
0110
1001
0000
0011
0000
,
0110
0000
1100
0000
0110
0000
0011
0110
,
1010
0000
0110
1001
0110
0000
0011
0110
,
0011
0000
1100
0110
0011
0000
0011
0110
,
1001
0000
0101
1010
1001
0000
0110
0011
,
0110
0000
1001
0110
0011
0000
1001
0110
,
1001
0000
0110
0011
0110
0011
0011
0011
,
0110
0000
0110
0011
0110
0000
1010
0110
,
1001
1001
0110
1001
,
0110
0000
0011
0000
0110
0000
1100
0011
,
0110
0000
0110
0011
0110
0000
1100
0110
,
0011
0000
1100
0110
0011
0000
0011
1100
,
0110
0000
0011
0110
1100
0000
0110
1100
,
0101
0000
0110
0011
0110
0000
1010
0110
,
0011
0000
1100
0110
0011
0000
0011
1100
,
0110
0000
0011
0110
1100
0000
0110
1100
,
0101
0000
0110
0011
0110
0000
1010
0110
,
0011
0000
1100
0110
0011
0000
0011
1100
,
0110
0000
0011
0110
1100
0000
0110
0000
,
0000
0000
0000
0000
,
0000
0000
0000
0000
;

//---------------dance-single - ----------------
#NOTES:
     dance-single:
     :
     Hard:
     18:
     1.000,1.000,1.000,0.354,0.785,1282.000,427.000,77.000,0.000,259.000:
0000
0000
0000
0110
,
0000
0110
0000
0000
0000
0000
0000
0000
,
0000
0000
0000
0110
,
0000
0110
0000
0000
0000
0000
0000
0000
,
0000
0000
0000
0000
0000
0000
0110
1000
,
1000
0011
1000
1000
0001
0100
0100
0010
,
0100
0100
0001
1000
1000
0001
0110
1000
,
1000
0101
1000
1000
0010
1000
1001
0100
,
1001
1000
0011
1100
0110
1101
2011
0010
,
0101
0000
3210
0010
1001
0000
2310
0010
,
0101
0000
0000
0000
3011
0000
0100
0010
0001
1000
0100
0010
1001
0000
0000
0000
,
0110
1001
0110
1012
,
0100
0000
1000
0000
1103
0010
1012
1000
,
0100
0000
0103
0100
1001
0100
1021
0001
,
1000
0000
1031
0001
1010
0001
1210
0010
,
1001
0000
1302
1000
0110
0000
2013
0010
,
0101
0000
0000
0000
3101
0000
0010
0001
1010
0000
0101
0000
1012
0000
1000
0000
,
0010
0000
1203
1000
0001
0000
1302
1000
,
0100
0000
0000
0000
1103
0000
0010
0100
0010
1000
0100
0010
1001
0000
0000
0000
,
0110
1001
0110
2101
,
0011
0000
0101
0000
3101
0010
1021
1000
,
0101
0000
0131
0100
1001
0100
1201
0001
,
1010
0000
1310
1000
0110
0001
2110
0000
,
0100
0001
3120
0000
1100
0001
2130
0000
,
0101
0000
0000
0000
3011
0000
0100
0010
1001
0010
1000
0010
1001
0000
0110
0000
,
1100
0110
0011
1100
0011
0110
1001
0011
,
0110
1100
0110
1100
0011
0110
1001
0110
,
1100
0110
0011
1100
0101
1010
1001
0011
,
0110
1100
1100
0110
0011
0110
1010
1100
,
0101
0110
1001
0100
1001
0010
0101
0110
,
1100
0101
1010
0011
1100
0110
1001
1100
,
0110
0011
1001
0010
1001
0110
1010
0011
,
1100
0000
0101
0000
1010
0000
0000
0000
0000
0000
0010
0100
1001
0000
0000
0000
,
0000
0000
0001
0010
0100
0000
0010
0000
0001
0000
1000
0000
0100
0010
1000
0000
,
0001
0000
0100
0000
0010
0000
0100
1000
0010
0100
0001
0100
0001
0000
0000
0000
,
0000
0000
1000
0100
0001
0000
0010
0000
0100
0000
1000
0000
0001
1000
0001
0100
,
0010
1000
0100
1000
0010
1000
0001
0100
0010
0100
1000
0100
0001
0000
0000
0000
,
0000
0000
0010
0001
0100
0001
1000
0010
0100
0001
1000
0010
0001
0000
0010
0001
,
0100
0001
1000
0001
0100
0001
1000
0000
,
0000
0000
0000
0000
0000
0000
1000
0000
0100
0000
0010
0000
0001
0000
0000
0000
0000
0000
1000
0000
0000
0000
0000
0000
0010
0000
0000
0000
0000
0000
0100
0000
0000
0000
0000
0000
1000
0000
0000
0100
0000
0000
0001
0000
0000
0010
0000
0000
,
1000
0100
0010
0001
0001
0010
0100
1000
0100
0001
0010
1000
0101
0000
0010
0000
,
0101
0010
1001
0100
1001
0100
1001
0010
,
1001
0010
1100
0010
1100
0010
1101
0110
,
1100
0110
1011
0101
1011
0101
1110
0111
,
1110
0111
1110
0001
1000
0100
1112
0000
,
1010
0100
2013
0000
0101
0010
3102
0000
,
1100
0000
0000
0000
1013
0000
0001
0010
1000
0100
0010
0001
1100
0000
0000
0000
,
0011
0110
1001
2101
,
0001
0000
0011
0000
3010
0001
1012
0000
,
0000
0000
1103
0000
0100
0010
1021
0000
,
0000
0000
0130
0000
0100
0010
0201
0000
,
1000
0001
1302
0000
1000
0100
2013
0000
,
0101
0000
0000
0000
3001
0000
0100
0010
0001
0001
0010
0010
1101
0000
0000
0000
,
0010
1100
0000
0001
1010
0000
1000
0001
,
0100
0000
0001
0100
0010
1000
0010
0100
0001
0000
0100
0100
1011
0000
0100
0000
,
0010
0000
1100
0000
0001
0100
0001
1000
0011
0000
0100
0010
0100
0000
1000
0000
,
0001
0000
1000
0100
0001
0010
1000
1000
0001
0010
0001
0010
1101
0000
0000
0000
,
0001
1100
0001
0100
1000
0011
0000
0110
,
0001
0000
0100
0000
1000
0100
0001
1000
0001
0000
0010
0010
1100
0000
0010
0000
,
0001
0000
1100
0000
0010
1000
0001
0100
0001
0000
0110
0000
1000
0000
1000
0000
,
0001
0000
1000
0100
0001
0010
1000
0010
0001
0010
1000
0100
0011
0000
0000
0000
,
1000
0011
1000
0100
1011
0000
1000
0010
,
1100
0000
0001
0000
1000
0010
0100
0001
1000
0000
0010
0000
1001
0000
0010
0000
,
1100
0011
1000
0001
1101
0010
1000
0000
,
1001
0000
0000
0000
1000
0001
0100
0001
1000
0000
0010
0000
1101
0000
0000
0000
,
1001
0110
1000
0100
1010
0001
1000
0011
,
1000
0000
0000
0000
1000
0001
0100
0010
1000
0000
0100
0000
1011
0000
0000
0000
,
1001
0000
0011
0000
1000
0000
0010
0000
1000
0000
0101
0000
1000
0000
0100
0010
,
1001
0010
0100
1000
1011
0000
0000
0000
0000
0000
0000
0000
0001
0001
0100
1000
,
0010
0010
0100
0100
0001
0001
1000
1000
0001
0010
0100
1000
0010
0010
1000
1000
,
0100
0010
0001
1000
0010
1000
0100
1000
0001
0010
0100
1000
0010
0010
0100
0100
,
0010
0001
0010
0100
0001
0001
1000
0010
1000
0100
0001
0100
0010
0010
0100
0001
,
1000
0001
0010
0100
0010
0100
0010
0001
1000
1000
1000
1000
0010
0010
0010
0010
,
1000
0100
0010
0100
0001
1000
0100
0010
0001
0010
0100
1000
0100
0100
1000
0100
,
0001
0010
0100
1000
0010
0100
0010
1000
0001
0010
0100
0010
0001
0001
1000
0100
,
0010
1000
0001
0100
0001
0001
0010
0010
0100
0100
1000
1000
0100
0100
0010
0010
,
1000
1000
0001
0001
0100
0100
0010
1000
0001
0000
0000
0000
0111
0000
0100
1000
,
0010
0000
1001
0000
0110
0000
1000
0000
0001
0010
0100
1000
0111
0000
1000
0000
,
0100
1000
0011
0100
0011
1000
0100
0010
0001
0010
0100
1000
0111
0000
1000
0000
,
0010
0001
1010
0100
1010
0000
0001
0010
1000
0100
0001
0100
1011
0000
0100
1000
,
0010
0001
0110
1000
0110
1000
0100
0001
1000
0000
0000
0000
1110
0000
0100
0010
,
0001
1000
0101
0010
0101
1000
0010
0100
0001
0010
0100
0010
1101
0000
0100
1000
,
0001
0010
1100
0010
1100
0001
1000
0010
0100
0001
1000
0010
1101
0000
0100
0010
,
0001
0100
1001
0100
1001
0001
0100
0100
0010
0010
1000
1000
0010
0010
0001
0010
,
1000
1000
0001
0010
1100
0010
1000
0010
1001
0000
0000
0000
1101
0000
0100
0010
,
1101
0000
0001
0000
1011
0000
0100
0000
1011
0100
0010
0001
1110
0000
0001
0000
,
1110
0001
0100
0010
1101
0010
0100
0010
1101
0010
0100
1000
0111
0000
1000
0000
,
0111
1000
0010
0100
1011
0000
0010
0100
1011
0100
0001
0010
1101
0000
0001
0010
,
1101
0010
0100
1000
0111
1000
0010
1000
0111
0000
0000
0000
1101
0000
0100
0010
,
1101
0010
0100
1000
0111
1000
0100
1000
0111
1000
0100
0001
1110
0000
0010
0001
,
1110
0001
0010
0100
1011
0100
0010
0100
1011
0100
1000
0010
1101
0000
0001
0010
,
1101
0010
1000
0100
1011
0100
0010
0100
1011
0100
1000
0100
1011
1000
0100
0100
,
1011
1000
0010
0100
1011
1000
0100
0010
1001
0000
0000
0000
1011
1000
0100
0100
,
1011
1000
0010
0100
1011
1000
0100
0010
1001
0000
0000
0000
0000
0000
0000
0000
,
1002
0000
2010
0000
0123
0000
3101
0100
,
1001
0100
0101
1100
0101
1001
2131
0010
,
0101
0001
0110
0101
0011
0101
3112
1000
,
1010
0100
1100
1010
0110
1100
1213
0010
,
1001
0010
1010
1001
0011
1010
2301
0010
,
0101
0001
0112
0100
0210
0010
3013
1000
,
1001
0010
1001
1010
0011
1001
1312
0100
,
0110
1000
2110
0100
0210
0010
3013
0001
,
1010
0000
0001
0000
1001
0000
1000
0010
1301
0000
0100
0010
1002
0000
0000
0000
,
0000
0000
0010
0100
1003
0000
0010
0000
0100
0000
0001
0000
0010
0100
0001
0000
,
1000
0000
0010
0000
0100
0000
0010
0001
0100
0010
1000
0010
1000
0000
0000
0000
,
0000
0000
0100
0010
0001
0000
0100
0000
1000
0000
0001
0000
0100
0010
1000
0010
,
0100
0001
0010
0001
0100
0001
1000
0010
0100
0010
0001
0100
1000
0000
0000
0000
,
0000
0000
0100
1000
0010
1000
0001
0100
0010
1000
0001
0100
1000
0000
0100
1000
,
0010
1000
0001
1000
0010
1000
0100
0000
,
0000
0000
0000
0000
0000
0000
1000
0000
0100
0000
0010
0000
0001
0000
0000
0000
0000
0000
1000
0000
0000
0000
0000
0000
0010
0000
0000
0000
0000
0000
0100
0000
0000
0000
0000
0000
0010
0000
0000
0001
0000
0000
0100
0000
0000
1000
0000
0000
,
0100
0010
1000
0100
0001
0010
0100
1000
0001
0010
0100
0010
1102
0000
0100
1000
,
0110
1000
0010
1000
0110
1000
0100
1000
0010
1010
0100
0010
2103
0010
0100
0001
,
0110
0001
0010
0001
0110
0001
0100
0001
0110
0001
0010
0010
3101
0010
0100
1000
,
0011
0100
0010
0100
1001
0010
0001
0100
0011
0100
1000
0100
1011
0100
1000
0010
,
0101
1000
0100
0010
1001
0010
0100
1000
0101
0010
0100
1000
0110
0001
1010
0001
,
1100
0001
0110
0001
1100
0001
1010
0001
1100
0001
0100
0001
0110
1000
0011
1000
,
0110
1000
0011
1000
0101
1000
0011
1000
0101
1000
0010
1000
0110
1000
0100
0001
,
0110
1000
0100
0010
1101
0010
0100
1000
0011
0100
1000
0010
1101
0010
0100
0001
,
0110
1001
0110
1001
0110
0000
0000
0000
0000
0000
0000
0000
1101
0000
0000
0000
,
1101
0000
1011
0000
1011
0000
1112
1000
,
1010
0000
2113
0100
0101
0000
3112
0010
,
1010
0000
0000
0000
1103
0000
0010
0100
0010
0001
0010
0100
1011
0000
0000
0000
,
1110
0111
1101
2011
,
0101
0000
0011
0000
0110
0011
0102
0100
,
0110
0000
3213
0010
1001
0010
1002
1000
,
1010
0000
1323
1000
0101
1000
2031
0001
,
0110
0001
0102
0100
0010
0100
0213
0010
,
0011
0000
0000
0000
3301
0000
0010
1000
0101
1000
0010
0100
0012
0000
0000
0000
,
1110
1203
1011
1320
,
1101
0000
0000
0000
0131
0000
1001
0100
1010
0001
1000
0100
1012
0000
0000
0000
,
1210
1023
2301
0132
,
3110
0000
1000
0000
1010
0100
1020
1000
,
1100
0100
2133
0100
0011
0100
0012
0010
,
0110
0000
3213
0010
1001
0010
1321
0000
,
1001
0100
2131
0000
0101
0010
3112
0000
,
1100
0000
1013
0000
1201
1020
1002
0000
,
1000
0000
1333
0000
2100
0210
0021
0000
,
0001
0000
3331
0000
1010
1001
2110
0000
,
0101
0010
3102
0000
1010
0100
2103
0100
,
0001
0000
0001
0000
3110
0001
1010
0001
0110
1001
0010
1000
1101
0000
0000
0000
,
0000
0000
0000
0000
,
0000
0000
0000
0000
;

//---------------dance-solo - ----------------
#NOTES:
     dance-solo:
     :
     Hard:
     20:
     1.000,1.000,1.000,0.592,0.767,1264.000,562.000,129.000,0.000,359.000:
000000
000000
000000
010010
,
000000
010010
000000
000000
000000
000000
000000
000000
,
000000
000000
000000
010010
,
000000
010010
000000
000000
000000
000000
000000
000000
,
000000
000000
000000
000000
000000
000000
010010
100000
,
100000
001001
100000
100000
000100
100000
100000
000010
,
100000
100000
000001
100000
100000
000001
010010
100000
,
100000
010100
100000
100000
001000
100000
100001
010000
,
100001
100000
001001
101000
010100
101010
110202
010000
,
101000
000000
102323
100000
010001
000000
023231
000001
,
100010
000000
000000
000000
131301
000000
000100
100000
010001
001000
000100
000010
101001
000000
000000
000000
,
011010
100101
011010
201002
,
001100
000000
000100
000000
310103
001010
100202
100000
,
011000
000000
010303
010000
101010
010100
102021
000001
,
100100
000000
103131
000001
101100
010010
202101
000001
,
000101
000000
323201
000001
100010
000000
232310
000010
,
000101
000000
000000
000000
303110
000000
010010
001001
010100
000000
001010
000000
120102
000000
100000
000000
,
001100
000000
230123
000100
010001
000000
320231
000001
,
001001
000000
000000
000000
131310
000000
000001
000010
010100
001000
000100
000010
101001
000000
000000
000000
,
010101
101010
100101
120021
,
001100
000000
100001
000000
130130
010010
102102
100000
,
010010
000000
013013
000010
101000
010100
021020
001000
,
100100
000000
130031
100000
010010
000101
120210
000000
,
100001
232310
000101
323201
,
100001
000000
000000
000000
130310
000000
001000
000100
101001
000100
100010
001000
100001
000000
010010
000000
,
100100
010100
001001
100100
001001
010010
010010
001100
,
010100
101000
100100
110000
000101
100100
001001
010010
,
100100
010010
000101
100100
010001
100010
100010
010100
,
101000
100100
100100
010010
001001
101000
010010
101000
,
010100
001010
100001
001100
100010
011000
001010
010100
,
100010
010100
001010
010100
101000
010100
001001
100100
,
010010
010100
100001
000110
010001
001100
001100
010010
,
100100
000000
001010
000000
100100
000000
000000
000000
000000
000000
010000
000100
100001
000000
000000
000000
,
000000
000000
000010
000100
001000
000000
000100
000000
000001
000000
100000
000000
000010
000100
001000
000000
,
010000
000000
100000
000000
010000
000000
001000
010000
000100
001000
000010
001000
000001
000000
000000
000000
,
000000
000000
010000
001000
000001
000000
000010
000000
000100
000000
001000
000000
000010
010000
000100
010000
,
001000
100000
010000
100000
001000
100000
000100
010000
000010
001000
010000
000100
000001
000000
000000
000000
,
000000
000000
000010
000001
000100
000001
001000
000010
010000
000100
100000
001000
000010
000000
000100
000010
,
001000
000010
010000
000010
100000
000010
001000
000000
,
000000
000000
000000
000000
000000
000000
010000
000000
001000
000000
000100
000000
000001
000000
000000
000000
000000
000000
100000
000000
000000
000000
000000
000000
000010
000000
000000
000000
000000
000000
000100
000000
000000
000000
000000
000000
100000
000000
000000
010000
000000
000000
001000
000000
000000
000100
000000
000000
,
010000
001000
000100
000010
000001
000010
000100
001000
000010
000100
001000
010000
100100
000000
010010
000000
,
100100
010010
100100
010010
100100
010010
100100
001001
,
100100
001001
100100
001001
100100
001001
100101
010010
,
100101
010010
100101
010010
100101
010010
101010
010101
,
101010
010101
101010
000100
000010
000001
121012
000000
,
001010
000100
231023
000000
010001
001000
320132
000000
,
101010
000000
000000
000000
031013
000000
000001
000100
010000
100000
001000
000010
010101
000000
000000
000000
,
101010
010101
101001
210102
,
000100
000000
010010
000000
310103
001010
202002
000000
,
000000
000000
313013
000000
010100
001001
202020
000000
,
000000
000000
313130
000000
100100
010010
200200
000000
,
000010
001000
302302
000000
010000
000010
203203
000000
,
001001
000000
000000
000000
301301
000000
010000
001000
000100
000100
000010
000010
101001
000000
000000
000000
,
000001
101100
000000
000100
011010
000000
000100
010000
,
000001
000000
010000
001000
100000
000100
000001
001000
000001
000000
000010
000010
101100
000000
010000
000000
,
000010
000000
110010
000000
001000
010000
000001
010000
100110
000000
001000
000100
010000
000000
100000
000000
,
000001
000000
010000
001000
000001
000010
010000
100000
000010
001000
000010
000100
101001
000000
000000
000000
,
000001
101010
000001
000100
010000
010101
000000
101010
,
000001
000000
000100
000000
010000
001000
000010
010000
000001
000000
001000
001000
100101
000000
000010
000000
,
000001
000000
101100
000000
000010
010000
000001
001000
000001
000000
101010
000000
010000
000000
100000
000000
,
000001
000000
010000
100000
000001
000010
001000
100000
000001
000100
000001
000010
010101
000000
000000
000000
,
100001
001010
100000
000010
101001
000000
100000
000000
,
100001
000000
000100
000001
100100
000000
001000
000000
100001
000000
000010
000000
101010
000000
000100
000000
,
100001
000101
100000
000001
101001
000000
100000
000000
,
100001
000000
100000
000000
100001
000010
100101
000000
,
100001
001010
100000
000100
100001
000101
100010
001010
,
100001
000000
100000
000000
100001
000100
100101
000000
,
100001
000000
001010
000000
100000
000000
000010
000000
100001
000000
001010
000000
100000
000000
000100
000010
,
101001
000010
000100
001000
110101
000000
000000
000000
000000
000000
000000
000000
000001
000001
010000
010000
,
000100
000100
000001
000001
001000
001000
100000
100000
000010
000100
001000
010000
000010
000010
010000
010000
,
001000
000100
000010
001000
000001
010000
001000
000100
000001
000010
000100
001000
000001
000001
001000
001000
,
000100
000010
000100
001000
000001
000001
000100
010000
100000
001000
000010
000100
010000
010000
001000
010000
,
100000
000100
001000
010000
000010
000100
000010
000001
000100
000100
000100
000100
001000
001000
001000
001000
,
000010
000100
001000
010000
000100
100000
010000
001000
000001
000010
000100
001000
000010
000010
010000
000010
,
000001
000010
000100
001000
000001
000010
001000
100000
000100
010000
100000
001000
000100
000100
100000
001000
,
000001
000010
000100
001000
000010
000010
001000
001000
010000
010000
100000
100000
001000
001000
000100
000100
,
010000
010000
000010
000010
100000
100000
001000
000100
000001
000000
000000
000000
100110
000000
001000
010000
,
001000
000000
100110
000000
101010
000000
010000
000000
000010
000100
001000
010000
100101
000000
010000
000000
,
001000
000100
101001
010000
001101
100000
010000
001000
000001
000010
000100
001000
010011
000000
100000
000000
,
001000
000100
010011
100000
010101
000000
000010
001000
010000
000100
000001
001000
110010
000000
001000
010000
,
001000
000001
110010
001000
110100
001000
000100
000010
000100
000000
000000
000000
101010
000000
010000
001000
,
000010
000100
101010
010000
100101
010000
001000
000100
000001
000010
000100
001000
100101
000000
001000
000100
,
000001
000010
100101
001000
110010
000100
001000
100000
001000
010000
100000
001000
100110
000000
010000
001000
,
000001
000010
101100
010000
001101
000010
010000
010000
000100
000100
100000
100000
010101
001000
000100
000001
,
101010
010000
001000
000100
101001
010000
000100
000010
000001
000000
000000
000000
010101
000000
000010
001000
,
010101
000000
000010
000000
101010
000000
010000
000000
101010
000100
001000
010000
100101
000000
010000
000000
,
101001
000100
000010
010000
001101
100000
010000
100000
001101
000010
000100
001000
010011
000000
100000
000000
,
010011
000100
001000
010000
100101
000000
001000
010000
100101
001000
000010
001000
010011
000000
000100
001000
,
010011
001000
000100
001000
110010
000001
000100
000001
110010
000000
000000
000000
110010
000000
001000
000100
,
110010
000100
001000
010000
100101
001000
000100
000010
101001
000010
000100
001000
010101
000000
001000
000010
,
010101
000000
000000
000010
000000
000000
000100
000000
000000
001000
000000
000000
110010
000000
000000
000000
000100
000000
000000
000000
001000
000000
000000
000000
110010
000000
000000
000100
000000
000000
001000
000000
000000
010000
000000
000000
101001
000000
000000
000000
000000
000000
000100
000000
000000
000010
000000
000000
,
101001
000010
000100
001000
010101
000010
001000
000010
010101
000010
001000
000100
101001
000100
000010
000001
,
101010
010000
001000
000010
100101
001000
000100
000010
000001
000000
000000
000000
101001
000100
000010
000001
,
101010
010000
001000
000010
100100
001000
000100
000010
100101
000000
000000
000000
000000
000000
000000
000000
,
001001
000000
100100
000000
010010
000000
001012
010100
,
101000
010100
001010
101000
001010
010100
210103
001010
,
000101
001010
001010
010100
000101
001010
310102
101000
,
010100
001010
010100
101000
001010
010100
210103
000101
,
001010
010100
010100
001010
000101
010100
301012
101000
,
010100
001010
210100
001010
010120
010000
310103
101000
,
000101
010100
001001
010100
101000
010100
201031
010100
,
001010
000101
001012
010100
020100
001010
301013
000101
,
100010
000000
001001
000000
100010
000000
100100
000010
130001
000000
001000
000100
100001
000000
000000
000000
,
000000
000000
000010
000100
001000
000000
000100
000000
000001
000000
100000
000000
000010
000100
001000
000000
,
010000
000000
100000
000000
010000
000000
001000
010000
000100
001000
000010
001000
000001
000000
000000
000000
,
000000
000000
010000
001000
000001
000000
000010
000000
000100
000000
001000
000000
000010
010000
000100
010000
,
001000
100000
010000
100000
001000
100000
000100
010000
000010
001000
010000
000100
000001
000000
000000
000000
,
000000
000000
000010
000001
000100
000001
001000
000010
010000
000100
100000
001000
000010
000000
000100
000010
,
001000
000010
010000
000010
100000
000010
001000
000000
,
000000
000000
000000
000000
000000
000000
010000
000000
001000
000000
000100
000000
000001
000000
000000
000000
000000
000000
100000
000000
000000
000000
000000
000000
000010
000000
000000
000000
000000
000000
000100
000000
000000
000000
000000
000000
100000
000000
000000
010000
000000
000000
001000
000000
000000
000100
000000
000000
,
010000
001000
000100
000010
000001
000010
000100
001000
000010
000100
001000
010000
100101
000000
010010
001001
,
100100
001010
010001
001010
100100
001000
010010
001000
100100
001000
010010
000001
100100
000000
001001
010010
,
100100
010001
001010
010100
100001
010000
001010
000100
101000
000001
010100
000010
100101
010000
001010
010000
,
100101
001000
010010
001000
100101
010000
001010
010000
000101
100000
010010
001000
100010
010001
100100
001010
,
010001
101000
010100
100010
001001
100010
010100
100010
010100
100010
001001
000100
101001
000000
010010
100100
,
001001
010100
100010
010100
001001
000100
010010
000100
001001
000100
010010
100000
001001
000000
100100
010010
,
001001
100010
010100
001010
100001
000010
010100
001000
000101
100000
001010
010000
101001
000010
010100
000010
,
100001
000100
010010
001000
100001
000010
010100
001000
010100
000010
100100
001000
010101
001000
100010
010000
,
001101
000010
101100
010000
101101
000000
000000
000000
000000
000000
000000
000000
110101
000000
000000
000000
,
110101
000000
101011
000000
101011
000000
101202
100000
,
101000
000000
212303
000010
010011
000000
313212
010000
,
110010
000000
000000
000000
110313
000000
001010
100100
010010
001001
100100
010010
101001
000000
000000
000000
,
010110
100101
011010
201012
,
011000
000000
010010
000000
310103
001010
210112
010000
,
010100
000000
311013
000010
101001
010110
121021
001000
,
100101
000000
130031
001010
100001
010010
102200
100000
,
010011
100000
213312
000010
001100
000010
321023
001000
,
101001
000000
000000
000000
030131
000000
100100
010010
100100
001001
010010
001001
210210
000000
000000
000000
,
011011
320320
101101
230232
,
011010
000000
000000
000000
311313
000000
010100
101000
010100
001010
000101
001010
110202
000000
000000
000000
,
121020
202303
030232
323020
,
101303
000000
001100
000000
101000
001001
130232
100000
,
101000
000000
101303
010010
021020
100100
001101
000001
,
101001
000000
130130
000100
100100
010010
102012
000000
,
100010
010000
213213
000000
001001
000010
312312
000000
,
110010
000000
103103
000000
200200
020020
002002
000000
,
300300
030030
103103
000000
002002
020020
200200
000000
,
003003
030030
301301
000000
100100
010010
002002
000000
,
100010
010000
203213
000000
010001
001000
320321
000001
,
100000
000000
100000
000000
031130
000001
100100
010000
100010
000100
010001
000010
101100
000000
000000
000000
,
000000
000000
000000
000000
,
000000
000000
000000
000000
;
